Flussonic

Can't play VOD file


#1

No video while playing this file via Flussonic:

17:18:02 ~: $ ffprobe clip.mp4
Input #0, mov,mp4,m4a,3gp,3g2,mj2, from ‘clip.mp4’:
Metadata:
major_brand : isom
minor_version : 512
compatible_brands: isomiso2mp41
encoder : Lavf54.63.104
Duration: 00:11:16.65, start: 0.000000, bitrate: 1669 kb/s
Stream #0:0(und): Video: mpeg4 (Simple Profile) (mp4v / 0x7634706D), yuv420p, 640x368 [SAR 1:1 DAR 40:23], 1500 kb/s, 25 fps, 25 tbr, 12800 tbn, 25 tbc (default)
Metadata:
handler_name : VideoHandler
Stream #0:1(und): Audio: aac (LC) (mp4a / 0x6134706D), 48000 Hz, stereo, fltp, 164 kb/s (default)
Metadata:
handler_name : SoundHandler

what i’m doing wrong? /clip.mp4/embed.html -> no video


#2

mpeg4 is old media codec that doesn’t supported by any browser. Flussonic is also doesn’t save support of mpeg4 codec. Do not confuse mpeg4 (MPEG-4 Part 2) with H264 (MPEG4 Part 10) - the most popular video codec today fully supported by Flussonic.


Convert your file to H264 and you’ll able to play it via the browser